阿密特(张惠妹)《AMIT 2》2015 台版原抓/整轨WAV+CUE/百度-CD包音乐网
查看: 4250|回复: 9

[华语] 阿密特(张惠妹)《AMIT 2》2015 台版原抓/整轨WAV+CUE/百度

[复制链接]
 成长值: 37790

390

主题

430

帖子

4万

积分

音乐总监

Rank: 15Rank: 15Rank: 15Rank: 15Rank: 15

积分
41758
发表于 2015-4-15 05:38:14 | 显示全部楼层 |阅读模式

注册会员,获得无损资源下载地址,享受高品质音乐。

您需要 登录 才可以下载或查看,没有帐号?注册

x
本帖最后由 Artist 于 2015-4-15 19:35 编辑

IMG_2382.JPG




专辑:AMIT 2/阿密特2
艺人:张惠妹
语种:国语
唱片公司:环球唱片
发行时间:2015年04月04日


专辑简介:

你 看得见自己的灵魂吗?

金曲团队集聚共振 六年能量累积喷发
阿密特 第二张超脱音乐体《AMIT2》
等待六年 未解之谜 不再无解
4月4日 正式发行

强势好评!2009年阿密特首张专辑 创下光荣佳绩
席卷各地!阿密特首次世界巡迴演唱会 叫好叫座一票难求
等待六年 千呼万唤 众所注目 全新阿密特蓄势待发 2015年确定来袭!

2009年张惠妹以分身「阿密特」发行首张专辑《阿密特》,突破张惠妹既有的风格与形象,阿密特诞生的唯一信念就是「为音乐而生,为歌唱而活」,而作品中音乐与视觉双重冲击的感官体验,也让阿密特首张专辑《阿密特》在第21届金曲奖一口气入围10项,最后一举拿下6项音乐大奖的光荣佳绩!而制作人阿密特与阿弟仔更是荣获「年度最佳专辑制作人」的专业肯定!叫好叫座的阿密特专辑一片强势好评,也催生了「阿密特首次世界巡回演唱会」,2009年11月起自广东佛山狂野开唱,接连在上海、澳门、香港、北京、台北、高雄..等大城市马不停蹄接力演出,摇滚女王魅力横扫全场,创下门票秒杀纪录! 而在首张专辑创造的好成绩之下,阿密特的第二张音乐作品也成为近年来华语市场最期待的专辑之一!终于,在相隔六年之后,全新阿密特即将带着全新作品再度来袭,于4月4日正式发行阿密特第二张专辑《AMIT2》。

金曲团队集聚共振 六年能量累积喷发
阿弟仔+AMIT 金曲制作组合携手打造升级阿密特
阿密特第二张超脱音乐体《AMIT2》 4月4日正式发行

不断超越音乐极限、不断突破既有规则,华语天后张惠妹再度以分身阿密特推出全新专辑《AMIT2》,终结各界六年的等待!金曲制作组合阿密特与阿弟仔再度携手打造,势必要将六年间的音乐能量一次喷发,也因此在这次专辑概念发想阶段,阿密特和制作团队就决定要完全推翻过去大家对阿密特的既定印象!音乐上将更强烈极致,影像上也将更前卫大胆,而除了听觉视觉上全都以阿密特概念为出发点,这张《AMIT2》也决定要更深入的往阿密特的内心探索!每一首歌都经过不断讨论与尝试,最后收录的十首歌曲各自拥有无可替代的阿密特风格,如同阿密特抛开所有束缚的内心世界,超脱一切的音乐境界。

而专辑名称《AMIT2》,其实也呼应着这次阿密特要表达的超脱境界!在制作团队彻夜开会讨论专辑名称时,一直尝试寻找一个可以代表阿密特音乐与内心的名字,经过不断发想、又不断推翻,最后阿密特说「我觉得什麽名字好像都不能说完这张作品,阿密特的专辑就应该叫AMIT」,瞬间让大家找到最直接最内心的答案!

首支数位单曲【不睡】 率先释出即攻占排行榜!
陈珊妮倾力打造 暴风雨前的宁静 阿密特风暴来临前 谁,都不能睡

在全新阿密特音乐降临歌坛之前首支数位单曲【不睡】抢先上线,没想到酝酿了六年的高度期待,让这首阿密特数位单曲在毫无大规模宣传之下却一举攻占数位排行榜亚军。而这首歌曲是由极具个人风格的创作人陈珊妮打造,不同于大家对阿密特既定印象的外放强烈,这首【不睡】唱出了另一种更私密面向的阿密特。

作词人陈仨以充满深夜感的【不睡】为名,将歌曲中无以名状的冲突感拉出了与现代人极具共鸣的「失眠」连结。其中歌词第一句「不想睡,阳光没出现怎么睡」,就道出了许多现代人的心声,往往失眠的人没有看到太阳就无法安心入睡,这句歌词也让阿密特自己特别有感觉。其实生活中一向晚睡的她,对于失眠有自己的一番体悟,阿密特说「只有夜晚这个时间,不会有人打扰」,所以对于想睡又睡不着的失眠,虽然会觉得痛苦,但却又常常矛盾的舍不得睡,因为只有夜晚会带给你寂静的恐惧,却又带给你最自我的安全感!

在阿密特风暴来临前,请先一起感受暴风雨前的最后宁静。

《AMIT2》官方100秒前导预告 重金打造霸气登场 引爆全球歌迷讨论热潮!
阿密特鹰眼飙唱【战之祭】 巨大能量震慑人心!

阿密特《AMIT2》专辑发行前,官方释出《AMIT2》100秒前导预告,更深入更贴近阿密特的听觉视觉,让预告一出立刻引爆全球歌迷讨论热潮!

随着前导预告首度曝光的歌曲【战之祭】最初源自于卑南族祈福的巫术,歌曲本身就有强烈的正能量,因此在视觉表现上,阿密特也提议能以卑南族文化里代表神圣象徵的老鹰,来呈现歌曲中震撼爆发的能量感!为了展现《AMIT2》最直冲人心的音乐影像双倍震撼,制作团队也不惜成本、狠砸百万预算拍摄100秒前导预告,请来了前云门舞集的专业舞者展现战士般的鹰族舞,在巴代老师吟唱的卑南族母语之下,阿密特也随着音乐急遽巨大的能量霸气登场!而造型一向大胆前卫的阿密特,这次在前导预告中,更以全新的鹰眼妆化身「鹰之女神」超杀降临,为了展现更锐利的鹰眼,阿密特更是戴上红色隐形眼镜在镜头前扫视,也让前导预告影片一上线就引发讨论热潮!为了让更多人可以感受更震撼的全新阿密特,100秒前导预告这次更不只在网路播出,更大手笔在电影院影厅强力播送!在各界等待六年之后,正式揭开了《AMIT2》的神秘启示!

《AMIT2》颠覆主打【怪胎秀】 诡谲开演!
阿密特掀起白色骚动 荒诞神经倾覆而出 一切肉身都是喧哗载体 敬请奇怪!

阿密特全新专辑《AMIT2》首波主打歌【怪胎秀】,完全颠覆了以往外界既定印象中阿密特较深沈的暗黑感,反而多了金属摇滚曲风。【怪胎秀】歌曲是由Hush作词,华正群、赖煜巽作曲,极具颠覆感、令人玩味的音乐风格,最后阿密特尝试了不同以往独特的声乐式唱法,让整首歌更充满歌剧张力;而在编曲上也加入了手风琴,让整首歌包覆一股乖诞诡谲的气氛!全新的阿密特音乐风格,完全挑战了音乐创作想像力的极限。

在阿密特的第一道音乐影像双重重击之后,请掌声欢迎【怪胎秀】诡谲开演!mv中呈现了歌曲描述的各形各色怪诞百态,彷佛眼前上演的一出马戏团,但这些世俗眼光中的怪异与不合理,其实都是自我最真实的特色。也因为极具颠覆又奇特的歌词意境,在MV视觉上也极尽所能的满足所有对乖诞的想像,特别打造了一个极度白的世界,各种可能的物种轮番上阵,不合逻辑的身体形态、扭曲疯狂的肢体表现、颠倒错位的眼睛视线,一切彷佛阿密特掀起的白色骚动,让所有荒诞神经都倾覆而出!充满实验风格的【怪胎秀】MV即将挑战你的视觉极限!敬请奇怪!


专辑曲目:
01 战之祭
02 怪胎秀
03 母系社会
04 衝突得很
05 放了那个作品
06 不睡
07 牙买加的槟榔
08 难搞
09 血腥爱情故事
10 你想干什麽



  1. Exact Audio Copy V1.0 beta 4 from 7. December 2014

  2. EAC 抓取日志文件从14. 四月 2015, 20:18

  3. 阿密特(張惠妹) / AMIT 2

  4. 使用驱动器  :HL-DT-STDVDROM DH18NS41   Adapter: 1  ID: 0

  5. 读取模式      : 可靠Secure
  6. 使用精确流     : 是
  7. 清空音频缓存    : 是
  8. 使用 C2 指示器 : 否

  9. 组合读写偏移校正:             : 0
  10. 读取 Lead-In 和 Lead-Out : 否
  11. 用静音填充抓取中丢失偏移的采样       : 是
  12. 去除首尾静音块               : 否
  13. 在CRC 计算中使用了空样本       : 是
  14. 已用接口                  : Win NT 及 2000 本地 Win32 接口

  15. 所用输出模式: : 内部 WAV 函数
  16. 样本格式    : 44.100 Hz; 16 Bit; 立体声


  17. 已抓取 CD 的 TOC

  18.      音轨 |    起始    |    长度    |  起始扇区  |  结束扇区  
  19.     --------------------------------------------
  20.       1 |  0:00.00 |  3:43.60 |      0 |  16784
  21.       2 |  3:43.60 |  4:22.18 |  16785 |  36452
  22.       3 |  8:06.03 |  3:55.19 |  36453 |  54096
  23.       4 | 12:01.22 |  4:20.67 |  54097 |  73663
  24.       5 | 16:22.14 |  4:39.13 |  73664 |  94601
  25.       6 | 21:01.27 |  4:38.01 |  94602 | 115452
  26.       7 | 25:39.28 |  4:29.38 | 115453 | 135665
  27.       8 | 30:08.66 |  4:40.40 | 135666 | 156705
  28.       9 | 34:49.31 |  4:22.25 | 156706 | 176380
  29.      10 | 39:11.56 |  3:31.64 | 176381 | 192269


  30. 范围状态及错误

  31. 已选择范围

  32.      文件名 C:\Users\Black tae latte\Documents\阿密特(張惠妹) - AMIT 2.wav

  33.      峰值电平 100.0 %
  34.      抓取速度 8.0 X
  35.      范围质量 100.0 %
  36.      复制 CRC BB133EC5
  37.      复制成功

  38. 没有错误发生

  39. 状态报告结尾

  40. ---- CUETools DB Plugin V2.1.4

  41. [CTDB TOCID: 7rMeX4g4sKA6T6oWuVsp40442kI-] found
  42. Submit result: 7rMeX4g4sKA6T6oWuVsp40442kI- has been confirmed
  43. Track | CTDB Status
  44.   1   | (15/15) Accurately ripped
  45.   2   | (15/15) Accurately ripped
  46.   3   | (15/15) Accurately ripped
  47.   4   | (15/15) Accurately ripped
  48.   5   | (15/15) Accurately ripped
  49.   6   | (15/15) Accurately ripped
  50.   7   | (15/15) Accurately ripped
  51.   8   | (15/15) Accurately ripped
  52.   9   | (15/15) Accurately ripped
  53. 10   | (15/15) Accurately ripped


  54. ------------------------------------------------------------

  55. Exact Audio Copy V1.0 beta 4 from 7. December 2014

  56. EAC 抓取日志文件从14. 四月 2015, 20:18

  57. 阿密特(張惠妹) / AMIT 2

  58. 使用驱动器  :HL-DT-STDVDROM DH18NS41   Adapter: 1  ID: 0

  59. 读取模式      : 可靠Secure
  60. 使用精确流     : 是
  61. 清空音频缓存    : 是
  62. 使用 C2 指示器 : 否

  63. 组合读写偏移校正:             : 0
  64. 读取 Lead-In 和 Lead-Out : 否
  65. 用静音填充抓取中丢失偏移的采样       : 是
  66. 去除首尾静音块               : 否
  67. 在CRC 计算中使用了空样本       : 是
  68. 已用接口                  : Win NT 及 2000 本地 Win32 接口

  69. 所用输出模式: : 内部 WAV 函数
  70. 样本格式    : 44.100 Hz; 16 Bit; 立体声


  71. 已抓取 CD 的 TOC

  72.      音轨 |    起始    |    长度    |  起始扇区  |  结束扇区  
  73.     --------------------------------------------
  74.       1 |  0:00.00 |  3:43.60 |      0 |  16784
  75.       2 |  3:43.60 |  4:22.18 |  16785 |  36452
  76.       3 |  8:06.03 |  3:55.19 |  36453 |  54096
  77.       4 | 12:01.22 |  4:20.67 |  54097 |  73663
  78.       5 | 16:22.14 |  4:39.13 |  73664 |  94601
  79.       6 | 21:01.27 |  4:38.01 |  94602 | 115452
  80.       7 | 25:39.28 |  4:29.38 | 115453 | 135665
  81.       8 | 30:08.66 |  4:40.40 | 135666 | 156705
  82.       9 | 34:49.31 |  4:22.25 | 156706 | 176380
  83.      10 | 39:11.56 |  3:31.64 | 176381 | 192269


  84. 范围状态及错误

  85. 已选择范围

  86.      文件名 C:\Users\Black tae latte\Documents\阿密特(張惠妹) - AMIT 2.wav

  87.      峰值电平 100.0 %
  88.      抓取速度 8.0 X
  89.      范围质量 100.0 %
  90.      复制 CRC BB133EC5
  91.      复制成功

  92. 没有错误发生

  93. 状态报告结尾

  94. ---- CUETools DB Plugin V2.1.4

  95. [CTDB TOCID: 7rMeX4g4sKA6T6oWuVsp40442kI-] found
  96. Submit result: 7rMeX4g4sKA6T6oWuVsp40442kI- has been confirmed
  97. Track | CTDB Status
  98.   1   | (15/15) Accurately ripped
  99.   2   | (15/15) Accurately ripped
  100.   3   | (15/15) Accurately ripped
  101.   4   | (15/15) Accurately ripped
  102.   5   | (15/15) Accurately ripped
  103.   6   | (15/15) Accurately ripped
  104.   7   | (15/15) Accurately ripped
  105.   8   | (15/15) Accurately ripped
  106.   9   | (15/15) Accurately ripped
  107. 10   | (15/15) Accurately ripped
复制代码




游客,如果您要查看本帖隐藏内容请回复

评分

参与人数 1CD +100 包子 +2 收起 理由
最终之战 + 100 + 2 牛牪犇!!!!!

查看全部评分





信《反正我信了》 2015台版原抓/整轨WAV+CUE/百度
最终原抓:窒息乐队《危险旅程》首版/WAV+FLAC+MP3/BD+115
 成长值: 38640

1万

主题

2万

帖子

49万

积分

音乐掌门人

Rank: 20Rank: 20Rank: 20Rank: 20Rank: 20

积分
493968

名人勋章社区QQ达人分享勋章精华帖达人灌水勋章

发表于 2015-4-15 09:43:50 | 显示全部楼层
居然有些金属元素在里面。。。有一听的欲望

点评

就猜你喜欢第一首  发表于 2015-4-15 19:33
所有资源均来自网络,仅供试听,严禁用于商业用途,下载后请于24小时后删除。
关于链接失效的说明(度盘好友分享的说明)
https://www.cdbao.net/thread-117499-1-1.html
 成长值: 38640

1万

主题

2万

帖子

49万

积分

音乐掌门人

Rank: 20Rank: 20Rank: 20Rank: 20Rank: 20

积分
493968

名人勋章社区QQ达人分享勋章精华帖达人灌水勋章

发表于 2015-4-15 23:52:00 | 显示全部楼层
我在想,张惠妹要是唱歌特金属,会是什么感觉?
所有资源均来自网络,仅供试听,严禁用于商业用途,下载后请于24小时后删除。
关于链接失效的说明(度盘好友分享的说明)
https://www.cdbao.net/thread-117499-1-1.html

519

主题

1818

帖子

6万

积分

天王巨星

Rank: 7Rank: 7Rank: 7

积分
62417

社区QQ达人

发表于 2015-5-13 13:41:38 | 显示全部楼层

我想和诱惑本质那样。。。。

725

主题

2139

帖子

24万

积分

音乐总监

Rank: 15Rank: 15Rank: 15Rank: 15Rank: 15

积分
241862

社区QQ达人

发表于 2015-8-26 08:46:04 | 显示全部楼层
听听A-Mei近期的风格 支持原抓!感谢分享~~

1

主题

1557

帖子

868

积分

VIP3

Rank: 6Rank: 6

积分
868
发表于 2016-5-23 23:36:29 | 显示全部楼层
台版其實還不錯的

0

主题

185

帖子

183

积分

乐坛新星

Rank: 2

积分
183

社区QQ达人

发表于 2017-4-7 10:18:05 | 显示全部楼层
感谢分享

199

主题

1491

帖子

7万

积分

天王巨星

Rank: 7Rank: 7Rank: 7

积分
78045

社区QQ达人灌水勋章

发表于 2019-1-12 14:21:41 | 显示全部楼层
台版的肯定不错,谢谢分享

106

主题

598

帖子

3万

积分

天王巨星

Rank: 7Rank: 7Rank: 7

积分
34759

社区QQ达人

发表于 2020-5-18 15:43:54 | 显示全部楼层
虽然AMIT2没有AMIT1那么惊艳,但是整体也蛮好听的。
您需要登录后才可以回帖 登录 | 注册

本版积分规则

快速回复 返回顶部 返回列表